martes, 29 de marzo de 2011

Salomón y la reina de Saba

Salomón y la reina de SabaOneRiotYahooAmazonTwitterdel.icio.us

Salomón y la reina de Saba, es una película de 1959 dirigida por King Vidor y protagonizada, entre otros, por Yul Brynner y Gina Lollobrigida.
Solomon and Sheba
Solomon and Sheba-Gina Lollobrigida4.JPG
Gina Lollobrigida, la Reina de Saba
Título Salomón y la reina de Saba
Ficha técnica
Dirección King Vidor
Guion Anthony Veiller
Paul Dudley
George Bruce
Música Mario Nascimbene
Fotografía Freddie Young
Reparto Yul Brynner
Gina Lollobrigida
George Sanders
Marisa Pavan
David Farrar
John Crawford
Finlay Currie.
Ver todos los créditos (IMDb)
Datos y cifras
País(es) Estados Unidos
Año 1959
Duración 139 minutos
Idioma(s) inglés
Ficha en IMDb

Contenido

[ocultar]

[editar] Argumento

El sucesor del rey David es su hijo Salomón (Yul Brynner), en contra del parecer de su hermano Adonías. Además, el Faraón tampoco está de acuerdo con que sea Salomón el nuevo rey, por lo que envía a la reina de Saba (Gina Lollobrigida) a seducir al rey y que así pierda el favor de Jehová y pueda destruirle...

[editar] Curiosidades

  • El actor elegido para interpretar el papel de Salomón fue Tyrone Power, pero éste murió repentinamente, de un infarto de miocardio en pleno rodaje, en Madrid. Su papel fue interpretado, entonces, por el ruso Yul Brynner y se repitieron las escenas realizadas hasta ese momento. Con todo, se aprovecharon algunos planos donde el personaje de Salomón, interpretado por Power, aparecía a lo lejos.

[editar] Referencias

[editar] Enlaces externos

jueves, 24 de marzo de 2011

Categoría:Películas sobre Jesús - UN NIÑO LLAMADO JESÚS








UN


NIÑO


LLAMADO


JESÚS




UN NIÑO LLAMADO JESÚS


Predeterminado Un niño llamado Jesús (1987) [TDTrip][MP4: 320x240 3GP2-AAC][Español]




Un niño llamado Jesús (1987
Director: Franco Rossi
Escritores:Vittorio Bonicelli (guión)
Vittorio Bonicelli (argumento)
Género: Drama | Historia
Reparto Matteo Bellina ... Jesus
Irene Papas ... Old Maria
María del Carmen San Martín ... Maria (como Carmen San Martin)
Maurizio Donadoni ... Jeder
Hichem Rostom ... Sedeq
Roberto Bisacco ... Marzio
Alessandro Gassman ... Adult Jesus
Bekim Fehmiu ... Joseph
Roberto Posse ... Druso
Frédéric Darie ... Elia
Pierre Clémenti ... Sefir

Conocido como: "Un bambino di nome Gesù" - Italia (título original)
País: Italia | Alemania Occidental


FUENTE: TDTrip
LENGUAJE: Español de España

General
Format : MPEG-4
Format profile : 3GPP2 Media
Codec ID : 3g2a
File size : 342 MiB
Duration : 1h 46mn
Overall bit rate : 448 Kbps

Video
Format : MPEG-4 Visual
Format profile : Simple@L1
Format settings, Matrix : Default (H.263)
Codec ID : 20
Duration : 1h 46mn
Bit rate mode : Variable
Bit rate : 384 Kbps
Width : 320 pixels
Height : 240 pixels
Display aspect ratio : 4:3
Frame rate mode : Constant
Frame rate : 25.000 fps
Resolution : 8 bits
Colorimetry : 4:2:0
Scan type : Progressive
Bits/(Pixel*Frame) : 0.200
Stream size : 294 MiB (86%)

Audio
Format : AAC
Format/Info : Advanced Audio Codec
Format version : Version 4
Format profile : LC
Format settings, SBR : No
Codec ID : 40
Duration : 1h 46mn
Bit rate mode : Variable
Bit rate : 59.0 Kbps
Channel(s) : 2 channels
Channel positions : L R
Sampling rate : 44.1 KHz
Stream size : 45.1 MiB (13%)

tomado de: http://www.vagos.es/showthread.php?t=1387922




UN NIÑO LLAMADO JESÚS
UN BAMBINO DI NOME GESÙ1987 (Italia, Alemania)[TP] Director: Franco RossiActores: Irene Papas, Hichem Rostom, Alessandro Gassman, Maurizio Donadoni
SINOPSIS
Siete años después de la huída a Egipto, José, María y su hijo Jesús, viven en una aldea en la frontera con Palestina. Les encuentra Sefir, un fanático sicario...


 

Categoría:Películas sobre JesúsOneRiotYahooAmazonTwitterdel.icio.us

 























TABLA - FUENTES - FONTS


SOUV2BalaramScaGoudyFOLIO 4.2Biblica Font







free counters


Disculpen las Molestias



TABLA de Greek Mythology

Category: Greek Mythology | A - Amp | Amp - Az | B | C | D | E | F | G | H | I | J | K | L | M | N | O | P | Q- R | S | T | U | V | W | X | Y | Z
Greek Mythology stub | Ab - Al | Ale - Ant | Ant - Az | B | C | D | E | F - G | H | I | K | L | M | N | O | P | Q - R | R | S | T | A - K | L - Z | Category:Greek deity stubs (593)EA2 | A | B | C | D | E | G | H | I | K | L | M | N | O | P | S | T | U | Z

viernes, 25 de febrero de 2011

El TORMENTO y EL ÉXTASIS







EL CINE







 El tormento y el éxtasis
TÍTULO ORIGINAL
The Agony and the Ecstasy
AÑO
DURACIÓN 139 min.  Trailers/Vídeos
PAÍS 
  Sección visual
DIRECTOR  Carol Reed
GUIÓN  Philip Dunne (Novela: Irving Stone)
MÚSICA  Alex North
FOTOGRAFÍA  John F. DeCuir
PRODUCTORA  20th Century Fox
PREMIOS  1965: 5 Nominaciones al Oscar: Direcc. Artíst. color, vestuario, fotografía, bso, sonido
GÉNERODrama
SINOPSIS
Renacimiento italiano, principios del siglo XVI (Cinquecento). Cuando el papa Julio II (Rex Harrison) encarga a Miguel Ángel (Charlton Heston) que pinte el techo de la Capilla Sixtina, el artista rechaza el trabajo. El Papa lo obliga a aceptarlo, pero Miguel Ángel destruye su obra y huye de Roma. Cuando, por fin, reanuda el proyecto, éste se convierte en un enfrentamiento de férreas voluntades, avivado por constantes diferencias artísticas y temperamentales. Drama histórico basado en un bestseller de Irving Stone.(FILMAFFINITY)
CRÍTICAS
Arte, poder y religión. Charlton Heston es Miguel Ángel, el genial pintor renacentista que pinta sin prisa la Capilla Sixtina mientras el Papa Julio II -Rex Harrison-, autor del encargo, se pregunta cuándo va a terminar el trabajo. Conflictos entre artista y patrocinador para un film nominado a 5 Oscar secundarios. (FILMAFFINITY) 























TABLA - FUENTES - FONTS


Arial
Balaram
ScaGoudy
FOLIO 4.2
Biblica Font







free counters


Disculpen las Molestias






TABLA de Greek Mythology

Category: Greek Mythology | A - Amp | Amp - Az | B | C | D | E | F | G | H | I | J | K | L | M | N | O | P | Q- R | S | T | U | V | W | X | Y | Z
Greek Mythology stub | Ab - Al | Ale - Ant | Ant - Az | B | C | D | E | F - G | H | I | K | L | M | N | O | P | Q - R | R | S | T | A - K | L - Z | Category:Greek deity stubs (593)EA2 | A | B | C | D | E | G | H | I | K | L | M | N | O | P | S | T | U | Z



Correo Vaishnava