jueves, 24 de marzo de 2011

Categoría:Películas sobre Jesús - UN NIÑO LLAMADO JESÚS








UN


NIÑO


LLAMADO


JESÚS




UN NIÑO LLAMADO JESÚS


Predeterminado Un niño llamado Jesús (1987) [TDTrip][MP4: 320x240 3GP2-AAC][Español]




Un niño llamado Jesús (1987
Director: Franco Rossi
Escritores:Vittorio Bonicelli (guión)
Vittorio Bonicelli (argumento)
Género: Drama | Historia
Reparto Matteo Bellina ... Jesus
Irene Papas ... Old Maria
María del Carmen San Martín ... Maria (como Carmen San Martin)
Maurizio Donadoni ... Jeder
Hichem Rostom ... Sedeq
Roberto Bisacco ... Marzio
Alessandro Gassman ... Adult Jesus
Bekim Fehmiu ... Joseph
Roberto Posse ... Druso
Frédéric Darie ... Elia
Pierre Clémenti ... Sefir

Conocido como: "Un bambino di nome Gesù" - Italia (título original)
País: Italia | Alemania Occidental


FUENTE: TDTrip
LENGUAJE: Español de España

General
Format : MPEG-4
Format profile : 3GPP2 Media
Codec ID : 3g2a
File size : 342 MiB
Duration : 1h 46mn
Overall bit rate : 448 Kbps

Video
Format : MPEG-4 Visual
Format profile : Simple@L1
Format settings, Matrix : Default (H.263)
Codec ID : 20
Duration : 1h 46mn
Bit rate mode : Variable
Bit rate : 384 Kbps
Width : 320 pixels
Height : 240 pixels
Display aspect ratio : 4:3
Frame rate mode : Constant
Frame rate : 25.000 fps
Resolution : 8 bits
Colorimetry : 4:2:0
Scan type : Progressive
Bits/(Pixel*Frame) : 0.200
Stream size : 294 MiB (86%)

Audio
Format : AAC
Format/Info : Advanced Audio Codec
Format version : Version 4
Format profile : LC
Format settings, SBR : No
Codec ID : 40
Duration : 1h 46mn
Bit rate mode : Variable
Bit rate : 59.0 Kbps
Channel(s) : 2 channels
Channel positions : L R
Sampling rate : 44.1 KHz
Stream size : 45.1 MiB (13%)

tomado de: http://www.vagos.es/showthread.php?t=1387922




UN NIÑO LLAMADO JESÚS
UN BAMBINO DI NOME GESÙ1987 (Italia, Alemania)[TP] Director: Franco RossiActores: Irene Papas, Hichem Rostom, Alessandro Gassman, Maurizio Donadoni
SINOPSIS
Siete años después de la huída a Egipto, José, María y su hijo Jesús, viven en una aldea en la frontera con Palestina. Les encuentra Sefir, un fanático sicario...


 

Categoría:Películas sobre JesúsOneRiotYahooAmazonTwitterdel.icio.us

 























TABLA - FUENTES - FONTS


SOUV2BalaramScaGoudyFOLIO 4.2Biblica Font







free counters


Disculpen las Molestias



TABLA de Greek Mythology

Category: Greek Mythology | A - Amp | Amp - Az | B | C | D | E | F | G | H | I | J | K | L | M | N | O | P | Q- R | S | T | U | V | W | X | Y | Z
Greek Mythology stub | Ab - Al | Ale - Ant | Ant - Az | B | C | D | E | F - G | H | I | K | L | M | N | O | P | Q - R | R | S | T | A - K | L - Z | Category:Greek deity stubs (593)EA2 | A | B | C | D | E | G | H | I | K | L | M | N | O | P | S | T | U | Z

No hay comentarios:

Publicar un comentario en la entrada

Correo Vaishnava